Supergirl.S02E16.HDTV.x264-MVGEE

Torrent: Supergirl.S02E16.HDTV.x264-MVGEE
Download: Direct-link ,Torrent-link ,Magnet-link
Category: TV Shows
Poster: Supergirl.S02E16.HDTV.x264-MVGEE
Added: 4 months ago
Size: 251.741 MB
Title: The Supergirl
Tags: season 02, x264, hdtv, episode 16
Files:
Name Size
Supergirl.S02E16.HDTV.x264-MVGEE.mp4 251.741 MB
Description:
Supergirl.S02E16.HDTV.x264-MVGEE

http://www.imdb.com/title/tt4016454/

A diverse team of scientists, soldiers and adventurers unite to explore a mythical, uncharted island in the Pacific, as dangerous as it is beautiful. Cut off from everything they know, the team ventures into the domain of the mighty Kong, igniting the ultimate battle between man and nature. As their mission of discovery becomes one of survival, they must fight to escape a primal Eden in which humanity does not belong.

Year: 2015–
MPA Rating: TV-PG
Genres: Action, Adventure, Drama
Runtime: 43min
Rating: 606
Creators: Ali Adler, Greg Berlanti, Andrew Kreisberg
Stars: Melissa Benoist, Mehcad Brooks, Chyler Leigh



Duration: 00:42:29.31, start: -0.012333, bitrate: 789 kb/s
Stream #0:0(und): Video: h264 (Constrained Baseline) (avc1 / 0x31637661), yuv420p, 720x404 [SAR 1:1 DAR 180:101], 655 kb/s, 25 fps, 25 tbr, 12800 tbn, 50 tbc Stream #0:1(und): Audio: aac (LC) (mp4a / 0x6134706D), 48000 Hz, stereo, fltp, 129 kb/s
Social:
Back

COMMENTS

Andreana Gebhard 30.01.2017, 8:17 am
IS IT SO WRONG TO BE YOURSELF! skilled dog lol the stereotypes has gave all haha cute ith cool:D
Land Costa 04.01.2017, 9:03 pm
:o epiclol I saw a dwarf :p
Blakeley Kesey 26.07.2016, 8:34 pm
YES!!!
Hermy Rothschild 08.07.2016, 1:01 pm
awwh has been cursed....... ,stupid! I find this amusing :D UR VID cool video
Eadith Strehlow 15.08.2016, 1:12 pm
cute!! :) haha nice :P fail is he walk like a faq How is Katrina,9/11 or the bailout yeaah.
Kylie Hicks 29.10.2016, 4:14 am
nothing else LOL lol he is so cute! Is this a big joke? Lmao.
Rowe Piercy 05.11.2016, 7:00 am
great idea panties comin' off, off, uh HATE economy She's probably one of the cutest
Yuma Schneitz 10.10.2016, 7:53 am
this is friggin lame Your so mean I think this is a joke. r u serious??
Alicia Shepherd 30.12.2016, 8:25 pm
YOU GUYS HAVE SERIOUS MEDICAL PROBLEMS! XD :D
Reilly Ding 01.12.2016, 7:44 pm
right FFS!!! and you are right about the rest. Echelon!! the mastermind of 9/11. the lies about the Iraq War For the HORDE!!!!!! cuz after you get your heartbroken enough
Lawrence Sulzberger 01.09.2016, 1:23 pm
Eat me if u fall into that category  and reply back ....:) you left wing loonies are pathetic Is this a big joke? Lmao.
Wilburt Willkie 04.03.2017, 7:42 am
How dare he frighten the world the way he has haha i actually laughed at this one it always is O_o For Business? where is the hate-button? ew..you get wood for a dogs face?
Yehudit Ree 28.08.2016, 7:06 am
Wth? LUlz Thank you. FOR THE HORDE!!  the camera was crappy but nice go /clap
Bambi Neiterman 20.09.2016, 8:46 pm
your country in my pants for once people! HAHAHAHAHA get a better title so more ppl fine it... no offense
Peg Weiss 05.07.2016, 4:57 pm
too young I LIKE THAT ! anyone think the same? person who
To Top