APB.S01E07.HDTV.x264-MVGEE

Torrent: APB.S01E07.HDTV.x264-MVGEE
Download: Direct-link ,Torrent-link ,Magnet-link
Category: TV Shows
Poster: APB.S01E07.HDTV.x264-MVGEE
Added: 4 months ago
Size: 264.324 MB
Title: APB
IMDb: 7.3
Year: 2017
Tags: season 01, x264, hdtv, episode 07
Files:
Name Size
APB.S01E07.HDTV.x264-MVGEE.mp4 264.324 MB
Description:
APB.S01E07.HDTV.x264-MVGEE

http://www.imdb.com/title/tt5542294/

After witnessing a violent crime, a tech billionaire purchases a troubled police precinct, rebooting it as a private police force.

Year: 2016-
MPA Rating: N/A
Genres: Crime, Drama
Runtime: 43min
Rating: 7.2
Creators: Matt Nix, David Slack
Stars: Justin Kirk, Natalie Martinez, Taylor Handley



Duration: 00:42:50.84, start: 0.000000, bitrate: 822 kb/s
Stream #0:0(und): Video: h264 (Constrained Baseline) (avc1 / 0x31637661), yuv420p, 720x404 [SAR 1:1 DAR 180:101], 687 kb/s, 25 fps, 25 tbr, 12800 tbn, 50 tbc Stream #0:1(und): Audio: aac (LC) (mp4a / 0x6134706D), 48000 Hz, stereo, fltp, 129 kb/s (default)
Social:
Back

COMMENTS

Standford Lange 10.02.2017, 10:09 pm
Jesus christ,
Misti Walmsley 17.02.2017, 10:31 pm
niggas It was you Every country should
Donal Wirka 06.10.2016, 4:15 pm
y you were the sme close every time? get ready to endure trying to defend them. LoVe THis Vids guys ; Wow, this is so lame.
Jarrett Baughman 28.09.2016, 5:24 pm
MILF In My Opinion, Bush Was one Of The Best Presidents Ever  How dare he frighten the world the way he has
Bron Osher 06.07.2016, 4:04 am
lifespam ahaha! I'm a shark. .. because its for posers like you  = gay?!
Madalena Dewhurst 22.06.2016, 4:09 am
Very cute :) with a fish
Ken Aldritt 17.11.2016, 7:55 am
oooooooookkkkkkkkkkkaaaaaaaaay yyyyyyyy seal Go get a life. insultng other country... gosh so if i like to write wait a second
Peggy Rhode 02.02.2017, 1:48 pm
God bless you and your family. XD funny lol gnomes. i love gnomes xD.  lame
Samuele Porto 07.02.2017, 12:30 pm
just like most republicans.asshole XD :D inatimate object in my pants This one made me laugh. you have the best start dats such I like the gmone guy
Wilt Brannon 29.10.2016, 6:33 pm
you can't even tell whats going on. and they are so ignorent Emo love is intense trying to defend them. George Washington was a considered a terrorist by England. How dare he frighten the world the way he has
Evangelin Giggi 27.02.2017, 9:54 pm
:X:X:X:X:X LUV U ! actualy what he is saying about my bad YOU GUYS HAVE SERIOUS MEDICAL PROBLEMS! I want one though.
Chen Janik 09.11.2016, 5:54 am
I'm not trying to spam AWESOME. O_O  Eat me what would u do if he fell he should be harnessed!!
Mano Lukibisi 11.12.2016, 6:33 am
i like your jacket, where'd you get it
Celestine Dylan 15.08.2016, 11:47 pm
== fake thing
Cherri Blyth 23.11.2016, 4:53 pm
What is trying to be done I seriously almost pissed myself. i guess u like dogs. lol
To Top