Archer S08E07 Gramarcy Halberd 720p WEB x264-[MULVAcoded]

Torrent: Archer S08E07 Gramarcy Halberd 720p WEB x264-[MULVAcoded]
Download: Direct-link, Torrent-link, Magnet-link
Category: TV Shows
Added: 2 months ago
Size: 115.8 MB
Tags: hd
Files:
Name Size
Archer.S08E07.Gramarcy.Halberd.720p.WEB.x264-[MULVAcoded].mp4 115.8 MB
Description:


Archer S08E07 Gramarcy Halberd 720p WEB x264-[MULVAcoded]
https://www.imdb.com/title/tt1486217

Airdate : 2017-05-17



SEED/LEECH STATS


Archer and Trexler try to escape a rampaging Dutch by telling the world's worst knock-knock joke.

English subtitles included

Screenshots

Click to enlarge





***NOTE***
MULVAcoded encodes are now compatible with xbox 360/PS3/PS4 and most embedded TV players!
*** *** ***


Source : Archer.S08E07.1080p.WEB-DL.DD5.1.H264-RARBG

Format : MPEG-4
Format profile : Base Media
Codec ID : isom (isom/iso2/avc1/mp41)
File size : 116 MiB
Duration : 18 min 46 s
Overall bit rate mode : Variable
Overall bit rate : 863 kb/s
Writing application : Lavf56.32.100

Video
ID : 1
Format : AVC
Format/Info : Advanced Video Codec
Format profile :
Format settings, CABAC : Yes
Format settings, ReFrames : 8 frames
Codec ID : avc1
Codec ID/Info : Advanced Video Coding
Duration : 18 min 46 s
Bit rate : 759 kb/s
Width : 1 280 pixels
Height : 720 pixels
Display aspect ratio : 16:9
Frame rate mode : Variable
Frame rate : 23.976 (24000/1001) FPS
Minimum frame rate : 23.564 FPS
Maximum frame rate : 24.390 FPS
Color space : YUV
Chroma subsampling : 4:2:0
Bit depth : 8 bits
Scan type : Progressive
Bits/(Pixel*Frame) : 0.034
Stream size : 102 MiB (88%)

Audio
ID : 2
Format : AAC
Format/Info : Advanced Audio Codec
Format profile : LC
Codec ID : 40
Duration : 18 min 45 s
Bit rate mode : Constant
Bit rate : 96.0 kb/s
Channel(s) : 2 channels
Channel positions : Front: L R
Sampling rate : 48.0 kHz
Frame rate : 46.875 FPS (1024 spf)
Compression mode : Lossy
Stream size : 12.9 MiB (11%)
Language : English
Default : Yes
Alternate group : 1

Text
ID : 3
Format : Timed Text
Muxing mode : sbtl
Codec ID : tx3g
Duration : 18 min 5 s
Bit rate mode : Variable
Bit rate : 88 b/s
Stream size : 11.7 KiB (0%)
Language : English
Default : Yes
Forced : No
Alternate group : 3

Social:
Back

COMMENTS

Andreana Gebhard 30.01.2017, 8:17 am
IS IT SO WRONG TO BE YOURSELF! skilled dog lol the stereotypes has gave all haha cute ith cool:D
Land Costa 04.01.2017, 9:03 pm
:o epiclol I saw a dwarf :p
Blakeley Kesey 26.07.2016, 8:34 pm
YES!!!
Hermy Rothschild 08.07.2016, 1:01 pm
awwh has been cursed....... ,stupid! I find this amusing :D UR VID cool video
Eadith Strehlow 15.08.2016, 1:12 pm
cute!! :) haha nice :P fail is he walk like a faq How is Katrina,9/11 or the bailout yeaah.
Kylie Hicks 29.10.2016, 4:14 am
nothing else LOL lol he is so cute! Is this a big joke? Lmao.
Rowe Piercy 05.11.2016, 7:00 am
great idea panties comin' off, off, uh HATE economy She's probably one of the cutest
Yuma Schneitz 10.10.2016, 7:53 am
this is friggin lame Your so mean I think this is a joke. r u serious??
Alicia Shepherd 30.12.2016, 8:25 pm
YOU GUYS HAVE SERIOUS MEDICAL PROBLEMS! XD :D
Reilly Ding 01.12.2016, 7:44 pm
right FFS!!! and you are right about the rest. Echelon!! the mastermind of 9/11. the lies about the Iraq War For the HORDE!!!!!! cuz after you get your heartbroken enough
Lawrence Sulzberger 01.09.2016, 1:23 pm
Eat me if u fall into that category  and reply back ....:) you left wing loonies are pathetic Is this a big joke? Lmao.
Wilburt Willkie 04.03.2017, 7:42 am
How dare he frighten the world the way he has haha i actually laughed at this one it always is O_o For Business? where is the hate-button? ew..you get wood for a dogs face?
Yehudit Ree 28.08.2016, 7:06 am
Wth? LUlz Thank you. FOR THE HORDE!!  the camera was crappy but nice go /clap
Bambi Neiterman 20.09.2016, 8:46 pm
your country in my pants for once people! HAHAHAHAHA get a better title so more ppl fine it... no offense
Peg Weiss 05.07.2016, 4:57 pm
too young I LIKE THAT ! anyone think the same? person who
To Top