Ezra (2017) Malayalam DVDRip x264 AAC 5.1 ESub MBRHDRG

Torrent: Ezra (2017) Malayalam DVDRip x264 AAC 5.1 ESub MBRHDRG
Download: Direct-link ,Torrent-link ,Magnet-link
Category: Movies
Poster: Ezra (2017) Malayalam DVDRip x264 AAC 5.1 ESub MBRHDRG
Added: 4 months ago
Size: 834.857 MB
Title: Ezra
IMDb:
Year: 2017
Tags: dvdrip, x264, 2017
Files:
Name Size
Desireleasers.com.url 110 B
Ezra (2017) Malayalam DVDRip x264 AAC 5.1 E-Sub-MBRHDRG.mkv 834.857 MB
Description:
Source: Desireleasers.com 

Ripper: MBRHDRG 

MediaInfo

Format : Matroska 
Format version : Version 2 
File size : 796 MiB 
Duration : 2 h 24 min 
Overall bit rate : 771 kb/s 
Video 
ID : 1 
Format : AVC 
Format/Info : Advanced Video Codec 
Format profile : [email protected] 
Format settings, CABAC : Yes 
Format settings, ReFrames : 4 frames 
Codec ID : V_MPEG4/ISO/AVC 
Duration : 2 h 24 min 
Bit rate : 579 kb/s 
Width : 720 pixels 
Height : 288 pixels 
Display aspect ratio : 2.500 
Frame rate mode : Constant 
Frame rate : 23.976 (24000/1001) FPS 
Color space : YUV 
Chroma subsampling : 4:2:0 
Bit depth : 8 bits 
Scan type : Progressive 
Bits/(Pixel*Frame) : 0.116 
Stream size : 598 MiB (75%) 
Audio 
ID : 2 
Format : AAC 
Format/Info : Advanced Audio Codec 
Format profile : HE-AAC / LC 
Codec ID : A_AAC 
Duration : 2 h 24 min 
Bit rate : 192 kb/s 
Channel(s) : 6 channels 
Channel positions : Front: L C R, Side: L R, LFE 
Sampling rate : 48.0 kHz / 24.0 kHz 
Frame rate : 23.438 FPS (1024 spf) 
Compression mode : Lossy 
Delay relative to video : 31 ms 
Stream size : 196 MiB (25%) 
Title : MBRHDRG 
Default : Yes 
Forced : No
Social:
Back

COMMENTS

Standford Lange 10.02.2017, 10:09 pm
Jesus christ,
Misti Walmsley 17.02.2017, 10:31 pm
niggas It was you Every country should
Donal Wirka 06.10.2016, 4:15 pm
y you were the sme close every time? get ready to endure trying to defend them. LoVe THis Vids guys ; Wow, this is so lame.
Jarrett Baughman 28.09.2016, 5:24 pm
MILF In My Opinion, Bush Was one Of The Best Presidents Ever  How dare he frighten the world the way he has
Bron Osher 06.07.2016, 4:04 am
lifespam ahaha! I'm a shark. .. because its for posers like you  = gay?!
Madalena Dewhurst 22.06.2016, 4:09 am
Very cute :) with a fish
Ken Aldritt 17.11.2016, 7:55 am
oooooooookkkkkkkkkkkaaaaaaaaay yyyyyyyy seal Go get a life. insultng other country... gosh so if i like to write wait a second
Peggy Rhode 02.02.2017, 1:48 pm
God bless you and your family. XD funny lol gnomes. i love gnomes xD.  lame
Samuele Porto 07.02.2017, 12:30 pm
just like most republicans.asshole XD :D inatimate object in my pants This one made me laugh. you have the best start dats such I like the gmone guy
Wilt Brannon 29.10.2016, 6:33 pm
you can't even tell whats going on. and they are so ignorent Emo love is intense trying to defend them. George Washington was a considered a terrorist by England. How dare he frighten the world the way he has
Evangelin Giggi 27.02.2017, 9:54 pm
:X:X:X:X:X LUV U ! actualy what he is saying about my bad YOU GUYS HAVE SERIOUS MEDICAL PROBLEMS! I want one though.
Chen Janik 09.11.2016, 5:54 am
I'm not trying to spam AWESOME. O_O  Eat me what would u do if he fell he should be harnessed!!
Mano Lukibisi 11.12.2016, 6:33 am
i like your jacket, where'd you get it
Celestine Dylan 15.08.2016, 11:47 pm
== fake thing
Cherri Blyth 23.11.2016, 4:53 pm
What is trying to be done I seriously almost pissed myself. i guess u like dogs. lol
To Top