[KANNADA] Ishtakamya 2016 1080p Untouched WebHD x264 AAC [TMB]

Torrent: [KANNADA] Ishtakamya 2016 1080p Untouched WebHD x264 AAC [TMB]
Download: Direct-link, Torrent-link, Magnet-link
Category: Movies
Added: 1 month ago
Size: 2.4 GB
Tags: hd
Files:
Name Size
Ishtakamya 2016 1080p Untouched WebHD x264 AAC [TMB].mp4 2.4 GB
Description:



























General
Complete name : Ishtakamya 2016 1080p Untouched WebHD x264 AAC [TMB].mp4
Format : MPEG-4
Format profile : Base Media
Codec ID : isom (isom/iso2/avc1/mp41)
File size : 2.41 GiB
Duration : 2 h 13 min
Overall bit rate mode : Variable
Overall bit rate : 2 583 kb/s
Writing application : Lavf56.40.101

Video
Format : AVC
Format/Info : Advanced Video Codec
Format profile :
Format settings, CABAC : Yes
Format settings, ReFrames : 5 frames
Codec ID : avc1
Codec ID/Info : Advanced Video Coding
Duration : 2 h 13 min
Bit rate : 2 500 kb/s
Width : 1 920 pixels
Height : 1 080 pixels
Display aspect ratio : 16:9
Frame rate mode : Constant
Frame rate : 25.000 FPS
Color space : YUV
Chroma subsampling : 4:2:0
Bit depth : 8 bits
Scan type : Progressive
Bits/(Pixel*Frame) : 0.048
Stream size : 2.28 GiB (95%)
Writing library : x264 core 148 r2721 72d53ab

Audio
Format : AAC
Format/Info : Advanced Audio Codec
Format profile : LC
Codec ID : 40
Duration : 2 h 13 min
Bit rate mode : Variable
Bit rate : 128 kb/s
Maximum bit rate : 131 kb/s
Channel(s) : 2 channels
Channel positions : Front: L R
Sampling rate : 44.1 kHz
Frame rate : 43.066 FPS (1024 spf)
Compression mode : Lossy
Stream size : 122 MiB (5%)


Uploaded & Shared by Manojvb

Seeding 24x7... Extreme Seeding...


Social:
Back

COMMENTS

Standford Lange 10.02.2017, 10:09 pm
Jesus christ,
Misti Walmsley 17.02.2017, 10:31 pm
niggas It was you Every country should
Donal Wirka 06.10.2016, 4:15 pm
y you were the sme close every time? get ready to endure trying to defend them. LoVe THis Vids guys ; Wow, this is so lame.
Jarrett Baughman 28.09.2016, 5:24 pm
MILF In My Opinion, Bush Was one Of The Best Presidents Ever  How dare he frighten the world the way he has
Bron Osher 06.07.2016, 4:04 am
lifespam ahaha! I'm a shark. .. because its for posers like you  = gay?!
Madalena Dewhurst 22.06.2016, 4:09 am
Very cute :) with a fish
Ken Aldritt 17.11.2016, 7:55 am
oooooooookkkkkkkkkkkaaaaaaaaay yyyyyyyy seal Go get a life. insultng other country... gosh so if i like to write wait a second
Peggy Rhode 02.02.2017, 1:48 pm
God bless you and your family. XD funny lol gnomes. i love gnomes xD.  lame
Samuele Porto 07.02.2017, 12:30 pm
just like most republicans.asshole XD :D inatimate object in my pants This one made me laugh. you have the best start dats such I like the gmone guy
Wilt Brannon 29.10.2016, 6:33 pm
you can't even tell whats going on. and they are so ignorent Emo love is intense trying to defend them. George Washington was a considered a terrorist by England. How dare he frighten the world the way he has
Evangelin Giggi 27.02.2017, 9:54 pm
:X:X:X:X:X LUV U ! actualy what he is saying about my bad YOU GUYS HAVE SERIOUS MEDICAL PROBLEMS! I want one though.
Chen Janik 09.11.2016, 5:54 am
I'm not trying to spam AWESOME. O_O  Eat me what would u do if he fell he should be harnessed!!
Mano Lukibisi 11.12.2016, 6:33 am
i like your jacket, where'd you get it
Celestine Dylan 15.08.2016, 11:47 pm
== fake thing
Cherri Blyth 23.11.2016, 4:53 pm
What is trying to be done I seriously almost pissed myself. i guess u like dogs. lol
To Top