Kill.Switch.2017.HDRip.XviD.AC3-EVO[PRiME]

Torrent: Kill.Switch.2017.HDRip.XviD.AC3-EVO[PRiME]
Download: Direct-link, Torrent-link, Magnet-link
Category: Movies
Added: 2 months ago
Size: 1.4 GB
Tags: Divx/Xvid
Files:
Name Size
Kill.Switch.2017.HDRip.XviD.AC3-EVO[PRiME].avi 1.4 GB
Please Support!! Read More!!!.txt 0.3 KB
sample[PRiME].avi 5.9 MB
Description:


Kill.Switch.2017.HDRip.XviD.AC3-EVO[PRiME]

ImDb: http://www.imdb.com/title/tt5464234



Complete name : Kill.Switch.2017.HDRip.XviD.AC3-EVO[PRiME].avi
Format : AVI
Format/Info : Audio Video Interleave
Format profile : OpenDML
Format settings : rec
File size : 1.36 GiB
Duration : 1 h 31 min
Overall bit rate : 2 128 kb/s
Writing application : AVI-Mux GUI 1.17.8.3, Feb 16 201019:42:50

Video
ID : 0
Format : MPEG-4 Visual
Format profile : Advanced
Format settings, BVOP : 2
Format settings, QPel : No
Format settings, GMC : No warppoints
Format settings, Matrix : Default (H.263)
Muxing mode : Packed bitstream
Codec ID : XVID
Codec ID/Hint : XviD
Duration : 1 h 31 min
Bit rate : 1 738 kb/s
Width : 720 pixels
Height : 304 pixels
Display aspect ratio : 2.35:1
Frame rate : 23.976 (24000/1001) FPS
Color space : YUV
Chroma subsampling : 4:2:0
Bit depth : 8 bits
Scan type : Progressive
Compression mode : Lossy
Bits/(Pixel*Frame) : 0.331
Stream size : 1.11 GiB (82%)
Writing library : XviD 66

Audio
ID : 1
Format : AC-3
Format/Info : Audio Coding 3
Mode extension : CM (complete main)
Format settings, Endianness : Big
Codec ID : 2000
Duration : 1 h 31 min
Bit rate mode : Constant
Bit rate : 384 kb/s
Channel(s) : 6 channels
Channel positions : Front: L C R, Side: L R, LFE
Sampling rate : 48.0 kHz
Frame rate : 31.250 FPS (1536 spf)
Compression mode : Lossy
Stream size : 251 MiB (18%)
Alignment : Aligned on interleaves
Interleave, duration : 64 ms (1.53 video frames)
Interleave, preload duration : 192 ms




Click Image To View Full Size


Click To View Screenshot
Click To View Screenshot
Click To View Screenshot

Social:
Back

COMMENTS

Andreana Gebhard 30.01.2017, 8:17 am
IS IT SO WRONG TO BE YOURSELF! skilled dog lol the stereotypes has gave all haha cute ith cool:D
Land Costa 04.01.2017, 9:03 pm
:o epiclol I saw a dwarf :p
Blakeley Kesey 26.07.2016, 8:34 pm
YES!!!
Hermy Rothschild 08.07.2016, 1:01 pm
awwh has been cursed....... ,stupid! I find this amusing :D UR VID cool video
Eadith Strehlow 15.08.2016, 1:12 pm
cute!! :) haha nice :P fail is he walk like a faq How is Katrina,9/11 or the bailout yeaah.
Kylie Hicks 29.10.2016, 4:14 am
nothing else LOL lol he is so cute! Is this a big joke? Lmao.
Rowe Piercy 05.11.2016, 7:00 am
great idea panties comin' off, off, uh HATE economy She's probably one of the cutest
Yuma Schneitz 10.10.2016, 7:53 am
this is friggin lame Your so mean I think this is a joke. r u serious??
Alicia Shepherd 30.12.2016, 8:25 pm
YOU GUYS HAVE SERIOUS MEDICAL PROBLEMS! XD :D
Reilly Ding 01.12.2016, 7:44 pm
right FFS!!! and you are right about the rest. Echelon!! the mastermind of 9/11. the lies about the Iraq War For the HORDE!!!!!! cuz after you get your heartbroken enough
Lawrence Sulzberger 01.09.2016, 1:23 pm
Eat me if u fall into that category  and reply back ....:) you left wing loonies are pathetic Is this a big joke? Lmao.
Wilburt Willkie 04.03.2017, 7:42 am
How dare he frighten the world the way he has haha i actually laughed at this one it always is O_o For Business? where is the hate-button? ew..you get wood for a dogs face?
Yehudit Ree 28.08.2016, 7:06 am
Wth? LUlz Thank you. FOR THE HORDE!!  the camera was crappy but nice go /clap
Bambi Neiterman 20.09.2016, 8:46 pm
your country in my pants for once people! HAHAHAHAHA get a better title so more ppl fine it... no offense
Peg Weiss 05.07.2016, 4:57 pm
too young I LIKE THAT ! anyone think the same? person who
To Top